#TITLE:Zhou Da Xia (Hero Chou);
#SUBTITLE:SDO-X lv22 - [N]hok[Q] Simfile;
#ARTIST:Jay Chou;
#TITLETRANSLIT:;
#SUBTITLETRANSLIT:;
#ARTISTTRANSLIT:;
#CREDIT:[N]hok[Q] ;
#BANNER:bn-zhoudaxia.png;
#BACKGROUND:bg-zhoudaxia.png;
#LYRICSPATH:;
#CDTITLE:cd-zhoudaxia.png;
#MUSIC:zhoudaxia.mp3;
#OFFSET:-0.027;
#SAMPLESTART:39.490;
#SAMPLELENGTH:11.607;
#SELECTABLE:YES;
#DISPLAYBPM:168.000;
#BPMS:0.000=168.008,41.000=167.999,42.000=168.008,49.000=167.999,50.000=168.008,57.000=167.999,58.000=168.008,61.000=167.999,62.000=168.008,63.000=167.999,64.000=168.008,65.000=167.999,66.000=168.008,67.000=167.999,68.000=168.008,69.000=167.999,70.000=168.008,71.000=167.999,72.000=168.008,73.000=167.999,74.000=168.008,75.000=167.999,76.000=168.008,77.000=167.999,78.000=168.008,79.000=167.999,80.000=168.008,81.000=167.999,82.000=168.008,83.000=167.999,84.000=168.008,85.000=167.999,86.000=168.008,87.000=167.999,88.000=168.008,89.000=167.999,90.000=168.008,91.000=167.999,92.000=168.008,93.000=167.999,94.000=168.008,95.000=167.999,96.000=168.008,97.000=167.999,98.000=168.008,99.000=167.999,100.000=168.008,101.000=167.999,102.000=168.008,103.000=167.999,104.000=168.008,105.000=167.999,106.000=168.008,107.000=167.999,108.000=168.008,109.000=167.999,110.000=168.008,111.000=167.999,112.000=168.008,113.000=167.999,114.000=168.008,115.000=167.999,116.000=168.008,117.000=167.999,118.000=168.008,119.000=167.999,120.000=168.008,121.000=167.999,122.000=168.008,123.000=167.999,126.000=168.008,127.000=167.999,130.000=168.008,131.000=167.999,134.000=168.008,135.000=167.999,138.000=168.008,139.000=167.999,142.000=168.008,143.000=167.999,146.000=168.008,147.000=167.999,150.000=168.008,151.000=167.999,154.000=168.008,155.000=167.999,158.000=168.008,159.000=167.999,162.000=168.008,163.000=167.999,166.000=168.008,167.000=167.999,170.000=168.008,171.000=167.999,174.000=168.008,175.000=167.999,178.000=168.008,179.000=167.999,182.000=168.008,183.000=167.999,186.000=168.008,187.000=167.999,190.000=168.008,191.000=167.999,194.000=168.008,195.000=167.999,198.000=168.008,199.000=167.999,202.000=168.008,203.000=167.999,206.000=168.008,207.000=167.999,210.000=168.008,211.000=167.999,214.000=168.008,215.000=167.999,218.000=168.008,219.000=167.999,222.000=168.008,223.000=167.999,226.000=168.008,227.000=167.999,230.000=168.008,231.000=167.999,234.000=168.008,235.000=167.999,238.000=168.008,239.000=167.999,242.000=168.008,243.000=167.999,249.000=168.008,250.000=167.999,256.000=168.008,257.000=167.999,263.000=168.008,264.000=167.999,270.000=168.008,271.000=167.999,274.000=168.008,275.000=167.999,281.000=168.008,282.000=167.999,288.000=168.008,289.000=167.999,295.000=168.008,296.000=167.999,298.000=168.008,299.000=167.999,305.000=168.008,306.000=167.999,312.000=168.008,313.000=167.999,319.000=168.008,320.000=167.999,324.000=168.008,325.000=167.999,331.000=168.008,332.000=167.999,338.000=168.008,339.000=167.999,345.000=168.008,346.000=167.999,348.000=168.008,349.000=167.999,355.000=168.008,356.000=167.999,362.000=168.008,363.000=167.999,369.000=168.008,370.000=167.999;
#STOPS:;
#BGCHANGES:0.000=Zhou Da Xia.avi=1.000=1=1=0,
352.500=bg-zhoudaxia.png=1.000=0=0=1,
99999=-nosongbg-=1.000=0=0=0 // don't automatically add -songbackground-
;
// cache tags:
#FIRSTBEAT:0.000;
#LASTBEAT:352.500;
#SONGFILENAME:Songs/SDO pack 5/Zhou Da Xia/Zhou Da Xia (Hero Chou).sm;
#HASMUSIC:1;
#HASBANNER:1;
#MUSICLENGTH:133.104;
// end cache tags

//---------------dance-single - ----------------
#NOTES:
     dance-single:
     :
     Medium:
     17:
     1.000,1.000,1.000,0.406,1.000,1083.000,405.000,54.000,0.000,77.000:
0001
0010
0100
0001
1010
0100
1001
0100
0010
0001
1000
0100
0010
1000
0100
0010
,
0001
0010
0100
1000
0001
0010
0100
0001
0010
0100
1000
0100
0010
0001
1000
0100
,
0010
1000
0100
0010
1001
0010
0101
1000
0001
0010
0100
0001
0010
0100
1000
0100
,
0010
0010
1000
1000
0010
0010
1000
1000
0010
0010
1001
0100
0010
0001
1010
0100
,
0010
0001
1000
0010
0101
1000
0101
1000
0100
0010
0001
0010
0100
0010
0100
0010
,
0001
1000
0100
0010
1001
0100
0011
1000
0001
0010
0100
1000
0100
1000
0100
0010
,
0001
0100
0010
0100
1010
0001
1100
0010
0100
1000
0001
0010
1000
0010
0100
1000
,
0001
0100
0010
1000
0100
0010
0001
1000
0100
0010
1000
0001
0010
0100
1000
0001
,
0100
0010
1000
0100
0011
1000
0101
0010
0100
0001
1000
0100
0010
1000
0100
0001
,
0100
1000
0001
0010
1100
0010
0101
1000
0100
1000
0100
0010
1000
0010
0100
1000
,
0100
0010
0001
0010
1100
0001
1100
0010
0001
0010
0100
0001
0100
0010
0001
1000
,
0020
0000
0000
0000
0000
0000
0000
0000
1030
0100
1000
0100
1000
0100
1000
0100
,
1001
1010
0110
1001
0110
0101
1010
0110
,
0011
0000
0110
0000
1010
0101
1010
0000
0000
0000
0110
0000
1001
0000
0110
0000
,
0011
0110
1100
0110
1001
1100
0110
0011
,
0100
0000
1001
0000
0110
1001
0110
0000
0000
0000
0110
0000
1100
0000
0110
0000
,
0011
0110
1100
1010
0110
1010
0011
1010
,
1100
0000
0110
0000
1001
0110
1001
0000
0000
0000
0110
0000
1100
0000
0110
0000
,
0011
1010
1100
1010
1001
0110
0011
0110
,
1100
0000
0000
0000
0110
0000
0000
0000
1001
0000
1001
0000
0110
0000
0000
0000
0000
0000
0000
0000
0110
0000
0000
0000
1000
0001
0010
0100
1000
0100
0010
0001
,
1000
0100
0010
0001
0010
0100
1000
0001
0100
0001
0100
0001
1000
0100
0010
0001
,
1000
0001
0100
0001
0100
0001
1000
0100
0010
0001
1000
0001
0010
0100
1000
0001
,
1000
0001
1000
0001
1000
0100
0010
0001
0010
0001
0010
0100
1000
0100
0010
0001
,
1000
0100
0010
0001
0010
0001
0010
0100
1000
0001
0100
0001
1000
0100
0010
0001
,
1000
0100
0010
1000
0100
0001
1000
0100
0010
1000
0010
0100
0001
0010
0100
1000
,
0010
0100
1000
0100
0010
0001
1000
0100
0010
0001
0010
0100
1001
0000
0000
0000
,
0110
1100
0110
0011
0110
1100
0110
0011
,
0110
0000
1100
0000
0110
0000
0110
0000
1001
0010
0101
0010
1001
0010
0101
0010
,
0101
0010
1001
0100
1010
0100
1001
0010
0101
0010
1001
0100
1010
0100
1001
0010
,
0101
0010
1001
0100
1010
0100
1001
0010
0101
0010
1001
0100
1010
0100
1001
0010
,
0100
1001
0110
1100
1010
0011
0110
1010
,
0011
0000
1001
0000
1100
0000
0101
0010
0101
1000
0001
0010
0100
1000
0001
0010
,
1001
0100
0010
0001
0010
0100
1000
0100
1001
0010
0100
1000
0100
0010
0001
0010
,
0101
1000
0100
0010
0001
0010
1000
0100
1010
0100
1000
0100
0001
0010
1000
0010
,
0100
1000
0011
0100
0001
0010
0001
1000
0001
0010
0001
1000
0001
1000
0101
0010
,
0100
0001
0010
1000
0001
0100
0010
0100
1001
0010
0001
0100
0011
1000
0100
0010
,
1001
0100
1010
0100
1010
0100
1010
0100
1001
0010
0101
0010
0101
0010
0101
0010
,
1001
0100
1001
0100
1001
0100
1001
0100
1010
0001
1010
0001
1010
0001
1010
0001
,
0110
1010
0110
0011
1010
0101
1010
0110
,
0011
0000
0110
0000
1100
0000
0110
0000
0011
0100
1001
0100
1010
0001
1010
0001
,
1010
0100
1010
0100
1010
0100
1010
0100
1001
0010
0101
0010
0101
0010
0101
0010
,
1001
0100
1001
0100
1001
0100
1001
0100
1001
0010
1001
0010
1001
0010
1001
0010
,
0200
1000
0001
0010
0001
0010
1000
0001
1320
0100
0001
1000
0001
0100
1001
0100
,
1032
0010
0100
0010
1000
0010
0100
1000
0023
1000
0100
0001
1000
0100
0001
1000
,
0231
0000
0321
0000
,
1230
0000
0321
0000
,
0000
0000
0000
0000
,
1031
0000
0010
0000
0001
0000
0010
0000
1001
0000
0010
0000
0001
0000
0010
0000
1001
0000
0010
0000
0001
0000
0010
0000
1000
0100
0001
1000
0100
0001
1000
0100
,
0001
0010
1000
0010
0100
1000
0010
0100
0001
1000
0100
0001
0100
1000
0001
0010
,
0201
0010
0001
0010
2301
0010
0001
0010
3201
0010
0001
0010
2301
0010
0001
0010
,
3201
0010
0001
0010
2301
0010
0001
0010
3201
0010
0001
0010
2301
0010
0001
0010
,
3201
0010
0001
0010
2301
0010
0001
0010
3201
0010
0001
0010
2301
0010
0100
0000
,
3021
1100
1132
1100
1123
1100
1132
0000
,
1213
0011
2311
0011
3211
0011
2311
0000
,
3201
0010
1321
0100
1231
0000
1301
0000
,
1001
0000
0000
0000
0000
0000
0000
0000
1001
0000
0000
0000
0000
0000
0000
0000
1001
0000
0000
0000
1001
0000
0000
0000
0011
1000
0100
0001
0010
1000
0100
0001
,
1010
0000
0211
0011
2311
0011
3211
0000
,
1320
1100
1132
1100
1123
0000
1231
0010
,
1320
0000
2031
0110
3021
1100
1132
1100
,
1023
1001
0230
0011
2311
0011
3211
1001
,
1320
1100
1132
1100
1123
1100
0231
1001
,
1310
0011
0101
1010
2112
0000
0000
0000
,
3113
0000
0101
0110
1001
1100
1010
1100
,
0101
0000
0000
0000
1100
0000
0000
0000
0110
0000
0000
0000
1001
0000
0000
0000
1000
0001
0100
0010
1000
0001
0100
0010
1000
0001
0100
0010
1000
0001
0100
0010
,
1001
0000
0101
0000
,
0101
0000
0000
0000
0000
0000
0100
0010
1001
0000
1000
0000
0110
0000
0001
0000
,
0011
1000
0010
1000
0011
0000
0001
0010
1100
0000
1000
0000
0011
0000
0001
0000
,
1100
0000
0000
0000
1100
0000
0101
0001
,
1010
0001
1000
0001
1010
0000
0000
0000
1010
0000
0000
0000
0000
0000
0000
0000
,
1100
0000
0000
0000
0000
0000
0010
0100
1000
0000
1000
0000
0101
0000
0001
0000
,
1001
0100
1000
0100
1001
0100
1000
0100
1001
0100
1000
0100
1001
0100
1000
0100
,
1020
0100
1001
0100
1001
0100
1001
0100
1031
0100
0010
0100
1001
0100
0001
0010
,
1001
0100
1010
0100
1001
0100
1010
0100
1001
0010
0101
0010
1001
0010
0101
0010
,
0101
1000
0101
1000
0101
1000
0101
0010
1100
0010
1100
0010
1100
0010
1100
0010
,
1000
0001
0110
0000
1100
0000
0110
0000
0011
0000
0110
0000
0011
0000
1010
0000
,
0101
0000
1001
0000
0101
0000
1010
0101
1010
0001
0100
1000
0110
0001
0010
0100
,
1000
0100
1010
0001
0010
0100
1000
0100
0010
0001
1010
0100
0010
0100
1000
0100
,
0010
0001
1010
0100
0010
0001
0010
0100
1000
0100
1010
0001
0010
0100
1000
0100
,
1010
0101
1010
1010
0101
0110
1100
0101
,
1010
0000
0101
0000
0110
0000
1010
0101
1010
0001
0100
1000
0101
0010
0101
0010
,
0001
0010
1001
0100
0010
0001
0010
0100
1000
0100
1001
0010
0100
1000
0100
0010
,
0001
0010
1100
0010
0001
0010
0100
1000
0100
0010
0101
1000
0100
0010
0001
0010
,
1100
1001
0110
0011
1100
0110
1001
0110
,
1001
0000
0110
0000
0101
0000
0110
1001
0110
0001
0010
1000
0101
1000
0101
0010
,
1001
0100
0011
0100
1010
0100
0011
0100
1010
0001
0110
0001
1010
0001
0110
0001
,
1010
0100
1001
0100
1010
0100
1001
0100
1010
0001
1100
0001
1010
0001
1100
0001
,
1010
0100
0011
0100
1010
0100
1010
0001
1100
0010
0101
1000
0101
0010
0101
1000
,
0110
1000
0101
0010
1100
0001
1010
0100
1010
0001
1100
0010
0110
1000
0100
0010
,
1001
0110
0000
0000
0000
0000
0000
0000
,
0000
0000
0000
0000
,
0000
0000
0000
0000
,
0000
0000
0000
0000
,
0000
0000
0000
0000
,
0000
0000
0000
0000
;

//---------------dance-single - ----------------
#NOTES:
     dance-single:
     :
     Hard:
     22:
     1.000,1.000,1.000,0.150,1.000,1316.000,279.000,20.000,0.000,19.000:
0001
0010
0001
0010
0001
0010
0100
1000
0010
0001
0000
0100
0001
0000
0010
0100
,
0001
0100
0001
0100
0001
0010
0100
1000
0100
0010
0000
0100
0001
0000
0010
0100
,
0001
0010
0001
0010
0001
0010
0100
0010
0100
0001
0000
0100
0001
0010
0001
0100
,
1000
1000
0010
0010
1000
1000
0010
0010
1001
0100
0010
0001
1010
1000
1000
1000
,
0010
0100
0001
0100
0001
0100
1000
0100
0001
0100
0010
0100
1000
0010
0001
0100
,
1001
0010
0100
0010
0001
0100
0010
1000
0100
0010
0100
0010
0001
0010
0100
1000
,
0101
1000
0010
0100
1000
0100
1000
0001
0100
0010
1000
0100
0001
0100
0010
0001
,
1010
0100
0010
0100
1000
0100
0010
0100
0001
0010
1000
0100
0001
0010
0100
1000
,
0101
1000
0100
0010
0001
0010
0100
0010
0100
0010
0001
0100
0001
0100
0010
1000
,
0101
0010
0100
0010
1000
0010
0100
0010
0001
0100
0010
0100
0001
0010
0100
1000
,
0011
0100
0010
1000
0101
1000
0001
0010
0100
0010
0100
0001
1010
0100
1010
0001
,
2020
0000
0000
0000
0000
0000
0000
0000
3131
0100
0100
0100
0011
0011
0011
0011
,
1100
0010
1000
0010
0101
1000
0101
1000
0100
0010
0001
0010
1001
0100
0010
0100
,
1001
0010
0100
0010
0101
1000
0101
1000
0010
0100
1000
0010
1001
0010
0100
1000
,
0011
0100
1000
0001
1010
0100
1010
0001
0100
0010
1000
0010
1001
0010
0100
0010
,
0101
1000
0100
0001
1010
0001
1010
0001
1000
0010
0100
0010
1001
0100
0010
0001
,
1010
0100
1000
0010
0101
1000
0101
1000
0001
0100
0010
0100
1001
0010
0100
0010
,
1001
0010
0100
0010
0101
1000
0101
1000
0010
1000
0010
0100
1001
0010
0100
1000
,
0011
0100
1000
0100
1010
0001
1010
0001
0100
0010
1000
0010
1001
0010
1000
0100
,
1010
0000
0001
0000
1000
0000
0100
0010
0001
0000
1000
0000
0100
0000
0001
0000
1010
0000
0100
0000
0010
0000
0100
0000
1001
0000
0001
0000
0001
0000
0010
0000
,
1001
0100
0010
1000
0101
1000
0101
1000
0001
0100
0001
0010
1001
0100
0001
0010
,
1000
0100
0001
1000
0101
1000
0101
1000
0001
0100
0001
0010
1001
0100
0010
0001
,
0100
1000
0010
0001
1010
0100
1010
0001
0010
1000
0010
0100
1000
0100
0010
1000
,
0100
0001
0010
0100
1010
0100
1010
0001
0010
1000
0100
1000
0001
0010
0100
1000
,
0100
0001
0010
0100
0001
0100
1000
0010
0100
0001
0100
0010
0001
1000
0100
0010
,
1000
0100
1000
0001
0100
0010
0001
1000
0100
0010
0100
0010
0001
0010
0100
1000
,
0101
0010
0100
0010
1001
0100
1001
0100
0001
0100
0010
0100
1001
0010
0100
1000
,
0011
0100
1000
0010
1001
0100
0001
0010
0101
0010
1001
0010
0101
0010
1001
0010
,
1001
0010
0100
1000
1001
0100
0010
0001
1010
0100
0010
0001
1001
0010
0100
1000
,
0101
0010
0100
1000
1001
0100
0010
0001
1010
0100
0010
0001
1001
0010
0100
1000
,
0101
0010
0001
0100
1010
0100
1000
0100
0001
0010
0001
0100
1010
0001
0100
1000
,
0101
0010
0001
0100
1010
0100
1000
0100
0001
0010
0100
1000
0001
0010
1000
0100
,
1001
0010
0100
1000
1001
0100
0010
0001
1010
0100
0010
0001
1001
0010
0100
1000
,
0101
0010
0100
1000
1001
0100
0010
0001
1010
0100
0010
0001
1001
0010
0100
1000
,
0011
0100
0001
0010
0001
1000
0001
0010
0001
1000
0001
1000
0101
0010
0100
0001
,
0010
1000
0001
0100
0010
0100
1001
0010
0001
0100
0010
0100
1001
0010
0100
0010
,
1001
0010
0100
1000
1001
0100
0010
0001
1010
0100
0010
0001
1001
0010
0100
1000
,
0101
0010
0100
1000
1001
0100
0010
0001
1010
0100
0010
0001
1001
0010
0100
1000
,
0010
0100
0001
1000
0001
0010
1001
0100
0001
0010
0001
0100
1010
0001
0100
0010
,
1001
0100
0001
0100
0010
1000
0010
0100
1010
0100
0010
0001
1010
0100
0001
0010
,
1001
0010
0100
1000
1001
0100
0010
0001
1000
0100
0010
0001
1001
0010
0100
1000
,
0001
0010
0100
1000
1001
0100
0010
0001
1000
0100
0010
0001
1001
0010
0100
1000
,
0001
0010
0001
0010
1000
0100
1001
0100
0001
0010
0001
0100
1001
0100
0001
0100
,
1010
0100
0001
0010
1000
0010
1001
0100
0001
0010
0100
0001
1010
0100
0010
0001
,
2010
0000
3201
0000
,
1320
0000
0132
0000
,
0000
0000
0000
0000
,
1103
0000
0010
0010
0001
0010
1000
0001
0001
0001
1100
0001
0001
0001
1001
0001
,
1010
0100
0010
0001
1020
0100
0001
1000
0100
1000
0001
0100
1031
0100
0010
0001
,
1010
0100
0001
0100
1020
0100
0001
1000
0001
0100
1000
0100
1031
0100
0001
0010
,
1001
0100
0010
0001
0210
0001
1000
0010
1000
0001
1000
0010
1301
0010
0100
0010
,
1001
0100
1000
0010
0201
0010
1000
0001
1000
0010
1000
0010
1301
0010
0100
1000
,
0011
1000
0010
0100
2001
0010
0100
0010
0001
0100
0001
0010
3101
0010
1000
0100
,
0011
1000
0010
0100
2001
0010
0001
0100
0010
0001
0100
0010
3101
0010
0100
1000
,
0011
1000
0100
0010
0201
1000
0010
0001
1000
0001
1000
0010
1301
0010
0100
0001
,
1010
0100
0010
1000
0201
0010
0001
0010
1001
0010
0001
0010
1301
0010
0100
1010
,
0101
1000
0010
0100
1020
0001
1000
0100
0001
0100
1000
0100
1031
0100
0010
1000
,
0011
0100
1000
0100
0021
0100
1000
0100
0001
1000
0100
0001
1130
0001
0010
0100
,
1001
0010
0001
0010
1200
0010
0001
0010
1000
0001
1000
0010
1301
0010
0100
0010
,
1001
0100
0001
0010
1200
0001
0010
0001
1000
0010
0001
0010
1301
0010
0100
1000
,
0011
0100
0010
0001
2100
0010
0100
0001
0010
0100
0010
0100
3001
0010
1000
0100
,
0010
0001
0100
0010
2100
0001
0010
0100
0001
0010
0001
0100
3001
0100
0010
0001
,
1010
0001
0100
0010
1000
0010
0101
0010
1000
0001
0100
0010
1001
0010
0001
0100
,
1010
0000
0001
0000
1000
0000
0100
0010
0001
0000
1000
0000
0101
0000
0010
0000
1000
0000
0001
0000
0010
0000
0100
0000
1001
0000
1001
0000
1001
0000
1001
0000
,
0100
0010
0100
0010
0001
0000
0001
0000
0101
0000
0100
0000
0001
0000
0001
0000
,
1100
0000
0100
0000
0001
0000
0100
0010
1001
0000
1000
0000
0011
0000
0001
0000
,
1010
0001
0010
0001
0010
0000
0001
0010
1100
0000
1000
0000
0011
0000
0001
0000
,
1100
1000
0010
0010
1100
1000
0101
0001
,
1001
0100
1000
0100
1000
0000
0010
0000
1010
0000
1000
0000
0001
0000
0001
0000
,
1100
0000
1000
0000
0010
0000
0010
0100
1000
0000
1000
0000
0101
0000
0001
0000
,
1001
0100
1000
0100
1001
0100
1000
0100
1001
0100
1000
0100
1001
0100
1000
0100
,
1010
0100
1010
0101
1010
0100
1001
0100
1010
0100
1001
0100
1010
0100
1001
0100
,
1001
0100
1000
0100
1001
0010
0001
0010
0101
0010
0100
0010
1001
0100
1000
0100
,
1010
0100
0010
0100
1010
0100
1000
0100
1001
0010
0001
0010
1001
0100
1000
0100
,
1010
0100
0010
0100
1010
0100
1001
0010
0100
0010
0100
1000
0011
0100
0010
1000
,
0101
1000
0100
0001
1010
0101
1010
0001
0010
0001
1010
0100
1010
0001
0010
0100
,
1001
0100
1000
0100
1001
0010
0001
0010
0101
0010
0100
0010
1001
0100
1000
0100
,
1010
0100
0010
0100
1010
0100
1000
0100
1001
0010
0001
0010
1001
0100
1000
0100
,
1010
0100
1000
0100
1001
0010
1001
0010
0100
0010
1000
0100
0011
0100
1010
0100
,
1010
0100
1001
0100
1001
0100
0001
1000
0101
0010
0101
0010
1101
0010
1100
0010
,
1001
0010
0001
0010
1001
0100
1000
0100
1010
0100
0010
0100
1001
0010
0001
0010
,
0101
0010
0100
0010
0101
0010
0001
0010
1001
0100
1000
0100
1001
0010
0001
0010
,
1100
0010
0100
0010
1001
0100
1010
0100
1001
0010
0001
0010
0101
0010
0100
0010
,
1100
0001
0010
0001
1010
0100
1010
0100
1000
0100
1001
0100
0011
1000
0101
0010
,
1001
0010
0001
0010
1001
0100
1000
0100
1010
0100
0010
0100
1001
0010
0001
0010
,
0101
0010
0100
0010
0101
0010
0001
0010
1001
0100
1000
0100
1001
0010
0001
0010
,
1001
0100
1000
0100
1010
0001
1010
0001
1000
0100
1000
0100
1010
0100
0001
0010
,
1001
0010
1001
0100
1010
0100
1001
0010
1001
0010
0101
1000
0110
1000
0100
0010
,
1001
0110
0000
0000
0000
0000
0000
0000
,
0000
0000
0000
0000
,
0000
0000
0000
0000
,
0000
0000
0000
0000
,
0000
0000
0000
0000
,
0000
0000
0000
0000
;

//---------------dance-single - ----------------
#NOTES:
     dance-single:
     :
     Challenge:
     26:
     1.000,1.000,1.000,0.511,1.000,1320.000,388.000,68.000,0.000,59.000:
1001
0100
0010
1000
0011
0100
0011
1000
0110
0001
0100
0010
1001
0010
0100
0010
,
1001
0010
0001
0010
0001
0100
0010
0001
0010
1000
0100
0010
0001
0010
0100
0010
,
1001
0100
0001
0100
0011
0100
1010
0100
1010
0001
0100
0010
0001
0100
0001
0010
,
1001
1000
0101
0100
1010
1000
0110
0100
1001
0110
0100
0101
1100
0110
0110
1001
,
0100
0010
0001
0010
0101
0010
1100
0010
0101
0010
0100
0010
1001
0100
0001
0010
,
1001
0100
0010
0100
1001
0010
0101
1000
0011
0100
0010
0100
1001
0100
0010
1000
,
0011
1000
0100
0010
1100
0010
1100
0001
1010
0100
1000
0010
0101
0010
0100
0001
,
1100
0010
0100
0010
1001
0010
0100
0010
0001
0100
1000
0010
1001
0100
0010
1000
,
0011
1000
0010
0100
1001
0100
1010
0100
0011
0100
0001
0010
1001
0010
0100
1000
,
0011
0100
0010
0100
1001
0100
0011
0100
1001
0010
0100
0010
1001
0100
0010
1000
,
0101
0010
0100
1000
0011
1000
0011
0100
1010
0100
0010
0001
1100
0010
1100
1100
,
2200
0000
0000
0000
0300
0000
0000
0000
3111
1010
1010
1010
0101
0101
0101
0101
,
1010
0100
1000
0100
0011
1000
0011
1000
0010
0100
0001
0100
1001
0010
0100
0010
,
1001
0100
0010
0100
0011
1000
0011
1000
0100
0010
1000
0100
1001
0100
0010
1000
,
0101
0010
1000
0001
1100
0010
1100
0001
0010
0100
1000
0100
1001
0100
0010
0100
,
0011
1000
0010
0001
1100
0001
1100
0001
1000
0100
0010
0100
1001
0010
0100
0001
,
1100
0010
1000
0100
0011
1000
0011
1000
0001
0010
0100
0010
1001
0100
0010
0100
,
1001
0100
0010
0100
0011
1000
0011
1000
0100
1000
0100
0010
1001
0100
0010
1000
,
0101
0010
1000
0010
1100
0001
1100
0001
0010
0100
1000
0100
1001
0100
1000
0010
,
1100
0000
0001
0000
1000
0000
0010
0100
0001
0000
1000
0000
0010
0000
0001
0000
1100
0000
0010
0000
0100
0000
0010
0000
1001
0000
0011
0000
1001
0000
0100
0000
,
1001
0010
0100
1000
0011
1000
0011
1000
0001
0010
0001
0100
1001
0010
0001
0100
,
1000
0010
0001
1000
0011
1000
0011
1000
0001
0010
0001
0100
1001
0010
0100
0001
,
0010
1000
0100
0001
1100
0010
1100
0001
0100
1000
0100
0010
1000
0010
0100
1000
,
0010
0001
0100
0010
1100
0010
1100
0001
0100
1000
0010
1000
0001
0100
0010
1000
,
0010
0001
0100
0010
1001
0010
1001
0100
1010
0001
0010
0100
0011
1000
0010
0100
,
1100
0010
1000
0001
1010
0100
0011
1000
0011
0100
0010
0100
1001
0100
0010
1000
,
0011
0100
0010
0100
1001
0010
1001
0010
0001
0010
0100
0010
1001
0100
0010
1000
,
0101
0010
1000
0100
1001
0010
0001
0100
0011
0100
1001
0110
0011
0110
1001
0110
,
1001
0110
0010
1000
1001
0010
0100
0001
1100
0010
0100
0001
1001
0100
0010
1000
,
0011
0100
0010
1000
1001
0010
0100
0001
1100
0010
0100
0001
1001
0100
0010
1000
,
0011
0100
0001
0010
1100
0010
1000
0010
0001
0100
0001
0010
1100
0001
0010
1000
,
0011
0100
0001
0010
1100
0010
1100
0010
1001
0100
0110
1000
0011
0100
1100
0010
,
1001
0100
0010
1000
1001
0010
0100
0001
1100
0010
0100
0001
1001
0100
0010
1000
,
0011
0100
0010
1000
1001
0010
0100
0001
1100
0010
0100
0001
1001
0100
0010
1000
,
0101
0010
1001
0100
0011
1000
0011
0100
0011
1000
0101
1000
0011
0100
1010
0001
,
0100
1000
0001
0010
0100
0010
1001
0100
0001
0010
0100
0010
1001
0100
0010
0100
,
1001
0100
0010
1000
1001
0010
0100
0001
1100
0010
0100
0001
1001
0100
0010
1000
,
0011
0100
0010
1000
1001
0010
0100
0001
1100
0010
0100
0001
1001
0100
0010
1000
,
0101
0010
0001
1000
0011
0100
1001
0010
1001
0100
0001
0010
1100
0001
0010
0100
,
1001
0010
0001
0010
0101
1000
0101
0010
1100
0010
0100
0001
1100
0010
0001
0100
,
1001
0100
0010
1000
1001
0010
0100
0001
1000
0010
0100
0001
1001
0100
0010
1000
,
0001
0100
0010
1000
1001
0010
0100
0001
1000
0010
0100
0001
1001
0100
0010
1000
,
0011
0100
0011
0100
1001
0010
1001
0010
0101
0100
1001
0010
1001
0010
0101
0010
,
1100
0010
0011
0100
1001
0100
1001
0010
0101
0100
0010
0001
1100
0010
0100
0001
,
2120
0030
3221
0300
,
1232
0003
2312
0000
,
0000
0000
0000
3000
,
1113
0000
0101
0110
1001
0110
1000
0101
0101
0101
1010
0011
0011
0011
1011
0011
,
2100
0010
0100
0001
3200
0010
0001
1000
0320
1000
0001
0001
2031
0010
0100
0001
,
3120
0001
0100
0001
1230
0010
0001
1000
0302
0010
1000
0010
2103
0010
0001
0100
,
3012
0010
0100
1000
0123
0001
1000
0100
2031
0001
0010
0100
3012
0100
0010
0100
,
1023
0100
1000
0100
0032
0100
1000
0010
1203
0001
1000
0010
1302
0100
0010
1000
,
0213
1000
0001
0010
2301
0100
0010
0100
3201
0010
0001
1000
0312
0100
1000
0010
,
1023
1000
0100
0001
2031
0100
0001
0010
3200
0001
0010
1000
1302
0100
0010
1000
,
0213
1000
0010
1000
0321
1000
0100
0001
1000
0001
1000
0100
1031
0100
0010
0001
,
1100
0010
0100
1000
0021
0100
0001
0100
1001
0100
0001
0100
1031
0100
0010
1100
,
0011
1000
0100
0010
1200
0001
1000
0010
0302
0010
1000
0010
2103
0010
0100
0010
,
3201
0010
1000
0010
2301
0010
0100
0010
3201
1000
0010
0001
2310
0001
0100
0010
,
3012
0100
1000
0100
1023
0100
0001
0100
1032
0000
1000
0100
1023
1000
0001
0100
,
2031
0010
0001
0100
3021
0001
0100
0001
1000
0100
0001
0100
1031
0100
0010
1000
,
0101
0010
0100
0001
2010
0100
0010
0001
0100
0010
0100
0010
3001
0100
1000
0010
,
0100
0001
0010
0100
2010
0001
0100
0010
0001
0100
0001
0010
3001
0010
0100
0001
,
1100
0001
0010
0100
1000
0100
0011
0100
1000
0001
0010
0100
1001
0100
0001
0010
,
1100
0000
0001
0000
1000
0000
0010
0100
0001
0000
1000
0000
0011
0000
0100
0000
1000
0000
1001
0000
0110
0000
0110
0000
1001
0000
1001
0000
1001
0000
1001
0000
,
0010
0100
0010
0100
0001
0000
0001
0000
0011
0000
0010
0000
0001
0000
0001
0000
,
1010
0000
0010
0000
0001
0000
0010
0100
1001
0000
1000
0000
0101
0000
0001
0000
,
1100
0001
0100
0001
0100
0000
0001
0100
1010
0000
1000
0000
0101
0000
0001
0000
,
1010
1000
0100
0100
1010
1000
0011
0001
,
1001
0010
1000
0010
1000
0000
0100
0000
1100
0000
1000
0000
0001
0000
0001
0000
,
1010
0000
1000
0000
0100
0000
0100
0010
1000
0000
1000
0000
0011
0000
0001
0000
,
1001
0010
1000
0010
1001
0010
1000
0010
1001
0010
1000
0010
1001
0010
1000
0010
,
1100
0010
1100
0011
1100
0110
1001
0110
1100
0110
1001
0110
1100
0011
1001
0010
,
0201
0010
1000
0010
0321
0100
0001
0100
1031
0100
0010
0100
1001
0010
1000
0010
,
1002
0010
0100
0010
1203
0010
1000
0010
1301
0100
0001
0100
1001
0010
1000
0010
,
1100
0010
0100
0010
1100
0010
1001
0100
0010
0100
0010
1000
0101
0010
0100
1000
,
0011
1000
0010
0001
1100
0011
1100
0001
0100
0001
1100
0010
1100
0001
0100
0010
,
0201
0010
1000
0010
2301
0100
0001
0100
3011
0100
0010
0100
1001
0010
1000
0010
,
1002
0010
0100
0010
1203
0010
1000
0010
1301
0100
0001
0100
1001
0010
1000
0010
,
1100
0010
1000
0010
1001
0100
1001
0100
0010
0100
1000
0010
0101
0010
1100
0010
,
1100
0010
1001
0010
1001
0010
0001
1000
0011
0100
0011
0100
1011
0100
1010
0100
,
0021
0100
0001
0100
0231
0010
1000
0010
1301
0010
0100
0010
1001
0100
0001
0100
,
2001
0100
0010
0100
3021
0100
0001
0100
1031
0010
1000
0010
1001
0100
0001
0100
,
1010
0100
0010
0100
1001
0010
1100
0010
1001
0100
0001
0100
0011
0100
0010
0100
,
1010
0001
0100
0001
1100
0010
1100
0010
1000
0010
1001
0010
0101
1000
0011
0100
,
0021
0100
0001
0100
1032
0010
1000
0010
1103
0010
0100
0010
1001
0100
0001
0100
,
2001
0100
0010
0100
3021
0100
0001
0100
1031
0010
1000
0010
1001
0100
0001
0100
,
1001
0010
1000
0010
1100
0001
1100
0001
1000
0010
1000
0010
1100
0010
0001
0100
,
1001
0100
1001
0010
1100
0010
1001
0100
1001
0100
0011
1000
0110
1000
0010
0100
,
1001
0110
0000
0000
0000
0000
0000
0000
,
0000
0000
0000
0000
,
0000
0000
0000
0000
,
0000
0000
0000
0000
,
0000
0000
0000
0000
,
0000
0000
0000
0000
;

//---------------dance-solo - ----------------
#NOTES:
     dance-solo:
     :
     Hard:
     26:
     1.000,1.000,1.000,0.150,1.000,1314.000,281.000,20.000,0.000,19.000:
000001
000100
000001
000100
000001
000100
001000
100000
001000
000100
000000
000001
000100
000000
001000
010000
,
000100
010000
000100
010000
000100
001000
000010
000100
010000
001000
000000
010000
000100
000000
001000
010000
,
000100
010000
000100
010000
000100
000010
001000
000010
001000
000100
000000
010000
000100
001000
000100
010000
,
100000
100000
001000
001000
000100
000100
000001
000001
100010
000100
000001
001000
010010
010000
000100
000100
,
001000
010000
000100
010000
000100
010000
000100
000001
000100
000001
000010
001000
100000
001000
000100
000001
,
100100
001000
010000
001000
000100
010000
001000
000010
001000
100000
010000
000100
000010
000100
010000
100000
,
001010
000001
000100
001000
000010
001000
100000
000100
010000
001000
000010
001000
000001
000010
001000
010000
,
001010
000000
100000
000010
000100
010000
001000
010000
000010
000100
100000
010000
000100
000010
001000
100000
,
010100
000010
010000
000001
000100
001000
010000
000010
010000
001000
000010
000001
100000
010000
001000
000001
,
010010
000100
010000
001000
100000
001000
010000
001000
000100
000001
001000
010000
000010
000100
010000
100000
,
001010
000001
001000
100000
010100
100000
000010
001000
010000
000010
010000
000001
010010
001000
010010
000001
,
200200
000000
000000
000000
000000
000000
000000
000000
310301
010000
010000
010000
000101
000101
000101
000101
,
110000
001000
000010
001000
000101
010000
000101
100000
001000
000100
000001
000010
100100
000001
000100
010000
,
100100
000001
000100
100000
010100
000010
010100
100000
001000
000100
000001
001000
100100
000001
000100
010000
,
001010
010000
000100
000001
101000
000100
101000
000010
000100
001000
100000
001000
010001
000100
000010
000001
,
001010
100000
010000
000100
101000
000100
101000
000001
000100
010000
100000
001000
000101
010000
001000
000010
,
100100
001000
000010
001000
010100
100000
010100
000001
000100
010000
001000
010000
001001
000010
000100
100000
,
010010
000001
000010
000001
001010
010000
001010
100000
001000
000100
000001
001000
100100
000010
010000
100000
,
001001
000010
000100
010000
101000
000100
101000
000010
000100
001000
100000
001000
000101
001000
100000
001000
,
000101
000000
001000
000000
100000
000000
010000
000100
000001
000000
000100
000000
010000
000000
000100
000000
001001
000000
000010
000000
001000
000000
010000
000000
100100
000000
000100
000000
000100
000000
000001
000000
,
100100
010000
001000
000010
010100
100000
010100
000001
000100
010000
000010
001000
100100
001000
000010
000001
,
000100
010000
000100
000001
010100
100000
010100
000001
000100
010000
100000
001000
000101
100000
001000
000010
,
010000
100000
000001
000100
101000
010000
101000
000100
000001
000100
001000
100000
000100
010000
001000
100000
,
010000
000001
000100
010000
101000
010000
101000
000001
000100
001000
100000
001000
000001
000100
001000
100000
,
010000
000001
000010
000100
100000
010000
001000
000010
010000
001000
000010
000001
000100
100000
010000
001000
,
000001
000100
000001
000100
010000
100000
000100
001000
000010
000100
010000
001000
000010
000100
001000
100000
,
010100
001000
010000
001000
000101
010000
100100
010000
000100
000001
000100
010000
100100
000001
000100
010000
,
001010
010000
001000
000100
010001
001000
000100
000010
100001
001000
010010
000100
100001
001000
010010
000100
,
100001
000100
001000
100000
100001
001000
000100
000001
010010
100000
001000
000001
100001
000100
001000
100000
,
010010
000100
001000
100000
100001
001000
000100
000001
100100
001000
000100
000001
100001
000100
001000
100000
,
010010
000100
000001
000010
100100
010000
000100
001000
000001
001000
000100
010000
101000
000100
000001
001000
,
010010
001000
000100
010000
100100
000001
000100
010000
000001
000100
001000
100000
000100
001000
000001
010000
,
100001
000100
001000
100000
100001
001000
000100
000001
010010
100000
001000
000001
100001
000100
001000
100000
,
010010
000100
001000
100000
100001
001000
000100
000001
100100
001000
000100
000001
100001
000100
001000
100000
,
010010
001000
000010
001000
000010
100000
000100
001000
000100
100000
000100
100000
010010
000001
000100
001000
,
000010
100000
000100
010000
000100
010000
001001
000100
000010
010000
001000
010000
001001
000010
000100
000010
,
100001
000100
001000
100000
100001
001000
000100
000001
010010
100000
001000
000001
100001
000100
001000
100000
,
010010
000100
001000
100000
100001
001000
000100
000001
100100
001000
000100
000001
100001
000100
001000
100000
,
010010
001000
000100
100000
000100
000001
100100
010000
000010
001000
000100
000001
101000
000100
000001
001000
,
100100
000001
000100
010000
000100
000001
000010
001000
100100
010000
000100
000010
001001
010000
000100
001000
,
100001
000010
000100
100000
100001
001000
000100
000001
100000
010000
000010
000001
100001
000100
001000
100000
,
000001
001000
010000
100000
100001
001000
000100
000010
100000
010000
000100
000001
100001
001000
010000
100000
,
000010
001000
000010
001000
000001
001000
100010
001000
000100
001000
000100
010000
100010
010000
000100
010000
,
100010
010000
000100
000010
000001
000100
101000
000001
000100
001000
010000
000010
100100
010000
000100
000010
,
200100
000000
301002
000000
,
100203
000000
200310
000000
,
000000
000000
000000
000000
,
300101
000000
001000
001000
000100
001000
100000
000010
000010
000010
101000
000001
000001
000001
001001
000001
,
100100
010000
001000
000100
102000
010000
000100
010000
000001
000100
000010
010000
103100
000001
001000
000010
,
100100
010000
000100
010000
100200
000010
010000
100000
000001
001000
100000
000010
001301
010000
000010
001000
,
100100
010000
000100
000010
020001
000100
100000
000010
100000
000001
100000
000100
130010
001000
000100
000010
,
100100
001000
000010
000001
020010
001000
000001
100000
000001
001000
000001
000010
030101
000010
001000
100000
,
001010
100000
001000
010000
200100
010000
000100
001000
000001
000100
010000
000001
310100
001000
000001
000100
,
101000
000010
000100
010000
200100
000001
000100
010000
000010
000100
010000
000001
310010
000100
010000
100000
,
001010
100000
000000
001000
020100
100000
001000
000100
100000
000100
100000
001000
130100
001000
010000
000100
,
101000
010000
001000
100000
020100
000001
000100
000001
100100
000001
000100
000001
130100
000010
000100
100010
,
010100
000010
001000
010000
102000
000100
100000
010000
000100
000001
000100
010000
103010
010000
000100
010000
,
001010
000100
100000
010000
002001
000100
100000
010000
000100
010000
000001
000100
103010
000001
000100
010000
,
100010
001000
000100
000001
020010
001000
000100
000001
100000
000100
100000
000010
130001
000100
010000
001000
,
100010
010000
000100
000001
020010
000100
000001
000100
100000
001000
000010
001000
130100
000001
000100
100000
,
001010
010000
001000
000010
200100
000010
001000
000001
000100
010000
001000
000010
300100
001000
100000
001000
,
000100
000010
010000
001000
200010
000001
001000
010000
000100
000001
000100
010000
300100
010000
001000
000010
,
101000
000100
000001
000100
100000
001000
010010
001000
100000
000100
010000
001000
100010
001000
000100
000001
,
101000
000000
000100
000000
100000
000000
010000
001000
000001
000000
100000
000000
010010
000000
000100
000000
010000
000000
000001
000000
000100
000000
001000
000000
010010
000000
010010
000000
010010
000000
010010
000000
,
000100
001000
100000
001000
000100
000000
000001
000000
001001
000000
001000
000000
100000
000000
001000
000000
,
100100
000000
000100
000000
000001
000000
000010
001000
010010
000000
010000
000000
000101
000000
010000
000000
,
100100
001000
000100
001000
000100
000000
000001
000100
101000
000000
100000
000000
001001
000000
000001
000000
,
100100
100000
001000
000001
100100
100000
010100
000001
,
100100
001000
100000
001000
100000
000000
000010
000000
010010
000000
010000
000000
000100
000000
000001
000000
,
101000
000000
100000
000000
000100
000000
000010
001000
100000
000000
100000
000000
010010
000000
000010
000000
,
100010
001000
100000
001000
100010
001000
100000
001000
100100
001000
100000
001000
100010
001000
100000
001000
,
100100
001000
100100
010010
100001
010010
100100
001000
100100
010000
100100
010000
100001
001000
100100
001000
,
100100
001000
100000
001000
100001
000100
000001
000100
010001
000100
010000
000100
100010
001000
100000
001000
,
100100
000001
000100
000001
100100
001000
100000
001000
100100
000001
000100
000001
100100
001000
100000
001000
,
100100
000010
001000
000010
101000
000010
100100
000001
001000
000010
001000
100000
001010
000100
001000
000001
,
010010
000100
000001
000100
101000
010100
101000
000100
000001
000010
001001
000100
001001
000010
001000
010000
,
100100
001000
100000
001000
100001
000100
000001
000100
100010
001000
010000
000100
100010
001000
100000
001000
,
100001
000100
000001
000100
100010
001000
100000
001000
100001
000100
000001
000100
100001
001000
100000
001000
,
100100
000010
100000
001000
100100
000010
100001
001000
000010
000001
000100
010000
001010
010000
100100
010000
,
100100
010000
001001
000010
001001
010000
001000
000100
010010
000100
010010
000100
101010
000100
101000
000001
,
100010
001000
000010
001000
100010
001000
100000
001000
100100
000001
001000
000010
100100
010000
000100
010000
,
001010
000100
010000
000100
010010
001000
000100
001000
100100
001000
100000
001000
100001
001000
000001
000100
,
100010
000100
010000
001000
100001
000010
100100
001000
100001
001000
000010
001000
010010
001000
000010
001000
,
110000
000100
000001
000100
101000
010000
101000
000010
100000
000010
100100
010000
001001
000010
010100
001000
,
100001
010000
000010
010000
100001
000010
100000
001000
100001
001000
000100
000001
100100
001000
000010
010000
,
001010
100000
001000
000010
010001
001000
000010
001000
100100
001000
100000
001000
100001
000100
000001
000100
,
100010
001000
100000
001000
100010
000100
100010
000100
100000
000100
001000
000010
100001
001000
000010
001000
,
100010
001000
010010
000100
001001
100000
010001
001000
010010
000001
010100
100000
001010
000001
010000
000100
,
100001
001100
000000
000000
000000
000000
000000
000000
,
000000
000000
000000
000000
,
000000
000000
000000
000000
,
000000
000000
000000
000000
,
000000
000000
000000
000000
,
000000
000000
000000
000000
;
